Rapidmacedonia
Добре дојдовте на Rapidmacedonia за да имате целосен пристап до форумот Кликнете на регистрирај се за да се регистрирате или влез за да се логирате
Rapidmacedonia
Добре дојдовте на Rapidmacedonia за да имате целосен пристап до форумот Кликнете на регистрирај се за да се регистрирате или влез за да се логирате
Rapidmacedonia
Would you like to react to this message? Create an account in a few clicks or log in to continue.


Добредојдовте на Rapidmacedonia форум!!!
 
HomeБарајРегистрирајте сеВлез

 

 WC 2006 Final Italy vs France HQ 10 GB

Go down 
АвторПорака
Administrator
Администратор
Администратор
Administrator


Број на мислења : 3305
Години : 29
Местолокација : Штип Македонија
Работа/хоби : Електротехничар

WC 2006 Final Italy vs France HQ 10 GB Empty
ПишувањеПредмет: WC 2006 Final Italy vs France HQ 10 GB   WC 2006 Final Italy vs France HQ 10 GB Icon_minitimeСре Jул 07 2010, 23:18

WC 2006 Final Italy vs France HQ 10 GB
WC 2006 Final Italy vs France HQ 10 GB 115944
WC 2006 Final Italy vs France HQ 10 GB 000002v
WC 2006 Final Italy vs France HQ 10 GB 000303
WC 2006 Final Italy vs France HQ 10 GB 000341y
WC 2006 Final Italy vs France HQ 10 GB 000402u
WC 2006 Final Italy vs France HQ 10 GB 000601
WC 2006 Final Italy vs France HQ 10 GB 830104
FIRST HALF

Format : MPEG-PS
File size : 2.98 GiB
Duration : 53mn 27s
Overall bit rate : 7 987 Kbps

Video
ID : 224 (0xE0)
Format : MPEG Video
Format version : Version 2
Format profile : Main@High
Format settings, BVOP : Yes
Format settings, Matrix : Default
Duration : 53mn 27s
Bit rate mode : Variable
Bit rate : 7 446 Kbps
Nominal bit rate : 7 650 Kbps
Width : 720 pixels
Height : 576 pixels
Display aspect ratio : 16:9
Frame rate : 50.000 fps
Standard : Component
Resolution : 8 bits
Colorimetry : 4:2:0
Scan type : Progressive
Bits/(Pixel*Frame) : 0.359
Stream size : 2.78 GiB (93%)

Audio
ID : 192 (0xC0)
Format : MPEG Audio
Format version : Version 1
Format profile : Layer 2
Duration : 53mn 27s
Bit rate mode : Constant
Bit rate : 224 Kbps
Channel(s) : 2 channels
Sampling rate : 48.0 KHz
Stream size : 85.6 MiB (3%)

WC 2006 Final Italy vs France HQ 10 GB 940639
Код:
http://rapidshare.com/files/405009405/WC_2006_Final_Italy_vs_France_1st_Half_by_Srex.part01.rar.html
http://rapidshare.com/files/405009433/WC_2006_Final_Italy_vs_France_1st_Half_by_Srex.part02.rar.html
http://rapidshare.com/files/405009434/WC_2006_Final_Italy_vs_France_1st_Half_by_Srex.part03.rar.html
http://rapidshare.com/files/405009437/WC_2006_Final_Italy_vs_France_1st_Half_by_Srex.part04.rar.html
http://rapidshare.com/files/405009436/WC_2006_Final_Italy_vs_France_1st_Half_by_Srex.part05.rar.html
http://rapidshare.com/files/405026904/WC_2006_Final_Italy_vs_France_1st_Half_by_Srex.part06.rar.html
http://rapidshare.com/files/405026945/WC_2006_Final_Italy_vs_France_1st_Half_by_Srex.part07.rar.html
http://rapidshare.com/files/405026944/WC_2006_Final_Italy_vs_France_1st_Half_by_Srex.part08.rar.html
http://rapidshare.com/files/405026978/WC_2006_Final_Italy_vs_France_1st_Half_by_Srex.part09.rar.html
http://rapidshare.com/files/405026991/WC_2006_Final_Italy_vs_France_1st_Half_by_Srex.part10.rar.html
http://rapidshare.com/files/405059525/WC_2006_Final_Italy_vs_France_1st_Half_by_Srex.part11.rar.html
http://rapidshare.com/files/405059531/WC_2006_Final_Italy_vs_France_1st_Half_by_Srex.part12.rar.html
http://rapidshare.com/files/405059529/WC_2006_Final_Italy_vs_France_1st_Half_by_Srex.part13.rar.html
http://rapidshare.com/files/405059528/WC_2006_Final_Italy_vs_France_1st_Half_by_Srex.part14.rar.html
http://rapidshare.com/files/405059530/WC_2006_Final_Italy_vs_France_1st_Half_by_Srex.part15.rar.html
http://rapidshare.com/files/405086388/WC_2006_Final_Italy_vs_France_1st_Half_by_Srex.part16.rar.html

WC 2006 Final Italy vs France HQ 10 GB 830104
SECOND HALF


Format : MPEG-PS
File size : 2.66 GiB
Duration : 47mn 45s
Overall bit rate : 7 977 Kbps

Video
ID : 224 (0xE0)
Format : MPEG Video
Format version : Version 2
Format profile : Main@High
Format settings, BVOP : Yes
Format settings, Matrix : Default
Format_Settings_GOP : M=3, N=24
Duration : 47mn 45s
Bit rate mode : Variable
Bit rate : 7 436 Kbps
Nominal bit rate : 7 650 Kbps
Width : 720 pixels
Height : 576 pixels
Display aspect ratio : 16:9
Frame rate : 39.474 fps
Original frame rate : 50.000 fps
Standard : Component
Resolution : 8 bits
Colorimetry : 4:2:0
Scan type : Progressive
Bits/(Pixel*Frame) : 0.454
Stream size : 2.48 GiB (93%)

Audio
ID : 192 (0xC0)
Format : MPEG Audio
Format version : Version 1
Format profile : Layer 2
Duration : 47mn 45s
Bit rate mode : Constant
Bit rate : 224 Kbps
Channel(s) : 2 channels
Sampling rate : 48.0 KHz
Video delay : -73ms
Stream size : 76.5 MiB (3%)


WC 2006 Final Italy vs France HQ 10 GB 940639
Код:
http://rapidshare.com/files/405086400/WC_2006_Final_Italy_vs_France_2nd_Half_by_Srex.part01.rar.html
http://rapidshare.com/files/405086426/WC_2006_Final_Italy_vs_France_2nd_Half_by_Srex.part02.rar.html
http://rapidshare.com/files/405086501/WC_2006_Final_Italy_vs_France_2nd_Half_by_Srex.part03.rar.html
http://rapidshare.com/files/405086499/WC_2006_Final_Italy_vs_France_2nd_Half_by_Srex.part04.rar.html
http://rapidshare.com/files/405116239/WC_2006_Final_Italy_vs_France_2nd_Half_by_Srex.part05.rar.html
http://rapidshare.com/files/405119719/WC_2006_Final_Italy_vs_France_2nd_Half_by_Srex.part06.rar.html
http://rapidshare.com/files/405119709/WC_2006_Final_Italy_vs_France_2nd_Half_by_Srex.part07.rar.html
http://rapidshare.com/files/405120109/WC_2006_Final_Italy_vs_France_2nd_Half_by_Srex.part08.rar.html
http://rapidshare.com/files/405120115/WC_2006_Final_Italy_vs_France_2nd_Half_by_Srex.part09.rar.html
http://rapidshare.com/files/405149871/WC_2006_Final_Italy_vs_France_2nd_Half_by_Srex.part10.rar.html
http://rapidshare.com/files/405151737/WC_2006_Final_Italy_vs_France_2nd_Half_by_Srex.part11.rar.html
http://rapidshare.com/files/405151783/WC_2006_Final_Italy_vs_France_2nd_Half_by_Srex.part12.rar.html
http://rapidshare.com/files/405151979/WC_2006_Final_Italy_vs_France_2nd_Half_by_Srex.part13.rar.html
http://rapidshare.com/files/405152044/WC_2006_Final_Italy_vs_France_2nd_Half_by_Srex.part14.rar.html
http://rapidshare.com/files/405178024/WC_2006_Final_Italy_vs_France_2nd_Half_by_Srex.part15.rar.html
WC 2006 Final Italy vs France HQ 10 GB 830104
EXTRA TIME + PENALTIES + PRESENTATION

Format : MPEG-PS
File size : 3.74 GiB
Duration : 1h 8mn
Overall bit rate : 7 786 Kbps

Video
ID : 224 (0xE0)
Format : MPEG Video
Format version : Version 2
Format profile : Main@High
Format settings, BVOP : Yes
Format settings, Matrix : Default
Format_Settings_GOP : M=3, N=24
Duration : 1h 8mn
Bit rate mode : Variable
Bit rate : 7 253 Kbps
Nominal bit rate : 7 650 Kbps
Width : 720 pixels
Height : 576 pixels
Display aspect ratio : 16:9
Frame rate : 50.000 fps
Standard : Component
Resolution : 8 bits
Colorimetry : 4:2:0
Scan type : Progressive
Bits/(Pixel*Frame) : 0.350
Stream size : 3.49 GiB (93%)

Audio
ID : 192 (0xC0)
Format : MPEG Audio
Format version : Version 1
Format profile : Layer 2
Duration : 1h 8mn
Bit rate mode : Constant
Bit rate : 224 Kbps
Channel(s) : 2 channels
Sampling rate : 48.0 KHz
Video delay : -342ms
Stream size : 110 MiB (3%)

WC 2006 Final Italy vs France HQ 10 GB 940639
Код:
http://rapidshare.com/files/405179375/WC_2006_Final_Italy_vs_France_Extra_Time___Penalties___Presentation__by_Srex.part01.rar.html
http://rapidshare.com/files/405179415/WC_2006_Final_Italy_vs_France_Extra_Time___Penalties___Presentation__by_Srex.part02.rar.html
http://rapidshare.com/files/405179557/WC_2006_Final_Italy_vs_France_Extra_Time___Penalties___Presentation__by_Srex.part03.rar.html
http://rapidshare.com/files/405179604/WC_2006_Final_Italy_vs_France_Extra_Time___Penalties___Presentation__by_Srex.part04.rar.html
http://rapidshare.com/files/405183165/WC_2006_Final_Italy_vs_France_Extra_Time___Penalties___Presentation__by_Srex.part05.rar.html
http://rapidshare.com/files/405200164/WC_2006_Final_Italy_vs_France_Extra_Time___Penalties___Presentation__by_Srex.part06.rar.html
http://rapidshare.com/files/405200195/WC_2006_Final_Italy_vs_France_Extra_Time___Penalties___Presentation__by_Srex.part07.rar.html
http://rapidshare.com/files/405200311/WC_2006_Final_Italy_vs_France_Extra_Time___Penalties___Presentation__by_Srex.part08.rar.html
http://rapidshare.com/files/405200394/WC_2006_Final_Italy_vs_France_Extra_Time___Penalties___Presentation__by_Srex.part09.rar.html
http://rapidshare.com/files/405203087/WC_2006_Final_Italy_vs_France_Extra_Time___Penalties___Presentation__by_Srex.part10.rar.html
http://rapidshare.com/files/405216739/WC_2006_Final_Italy_vs_France_Extra_Time___Penalties___Presentation__by_Srex.part11.rar.html
http://rapidshare.com/files/405216777/WC_2006_Final_Italy_vs_France_Extra_Time___Penalties___Presentation__by_Srex.part12.rar.html
http://rapidshare.com/files/405216856/WC_2006_Final_Italy_vs_France_Extra_Time___Penalties___Presentation__by_Srex.part13.rar.html
http://rapidshare.com/files/405216874/WC_2006_Final_Italy_vs_France_Extra_Time___Penalties___Presentation__by_Srex.part14.rar.html
http://rapidshare.com/files/405219429/WC_2006_Final_Italy_vs_France_Extra_Time___Penalties___Presentation__by_Srex.part15.rar.html
http://rapidshare.com/files/405233821/WC_2006_Final_Italy_vs_France_Extra_Time___Penalties___Presentation__by_Srex.part16.rar.html
http://rapidshare.com/files/405233877/WC_2006_Final_Italy_vs_France_Extra_Time___Penalties___Presentation__by_Srex.part17.rar.html
http://rapidshare.com/files/405234068/WC_2006_Final_Italy_vs_France_Extra_Time___Penalties___Presentation__by_Srex.part18.rar.html
http://rapidshare.com/files/405234083/WC_2006_Final_Italy_vs_France_Extra_Time___Penalties___Presentation__by_Srex.part19.rar.html
http://rapidshare.com/files/405237506/WC_2006_Final_Italy_vs_France_Extra_Time___Penalties___Presentation__by_Srex.part20.rar.html
http://rapidshare.com/files/405239975/WC_2006_Final_Italy_vs_France_Extra_Time___Penalties___Presentation__by_Srex.part21.rar.html
Вратете се на почетокот Go down
https://rapidmacedonia.forummk.com
 
WC 2006 Final Italy vs France HQ 10 GB
Вратете се на почетокот 
Страна 1 of 1
 Similar topics
-
» NBA All Star Game 2006
» FIFA World Cup Final-Germany Vs Brazil 2002

Permissions in this forum:Не можете да одговарате на темите во форумот
Rapidmacedonia :: :::::..Превземање..::::: :: Филмови :: Спорт-
Отиди до:  
Free forum | © phpBB | Free forum support | Контакт | Report an abuse | Latest discussions